<?xml version="1.0" standalone="no"?>
<!DOCTYPE svg PUBLIC "-//W3C//DTD SVG 1.1//EN" "http://www.w3.org/Graphics/SVG/1.1/DTD/svg11.dtd" >
<svg xmlns="http://www.w3.org/2000/svg">
<metadata></metadata>
<defs>
<font id="bebas_neuebook" horiz-adv-x="780" >
<font-face units-per-em="2048" ascent="1536" descent="-512" />
<missing-glyph horiz-adv-x="317" />
<glyph horiz-adv-x="0" />
<glyph unicode="&#xd;" horiz-adv-x="317" />
<glyph horiz-adv-x="0" />
<glyph horiz-adv-x="0" />
<glyph unicode=" "  horiz-adv-x="317" />
<glyph unicode="&#x09;" horiz-adv-x="317" />
<glyph unicode="&#xa0;" horiz-adv-x="317" />
<glyph unicode="!" horiz-adv-x="258" d="M82 686v750h94v-750l-12 -369h-70zM84 0v178h90v-178h-90z" />
<glyph unicode="&#x22;" horiz-adv-x="421" d="M82 1436h92l-12 -357h-70zM248 1436h92l-12 -357h-68z" />
<glyph unicode="#" horiz-adv-x="847" d="M63 455l7 69h135l49 465h-137l6 70h137l39 377h80l-39 -377h240l38 377h80l-39 -377h125l-6 -70h-125l-49 -465h125l-6 -69h-125l-49 -455h-80l49 455h-242l-47 -455h-79l49 455h-136zM285 524h239l49 465h-241z" />
<glyph unicode="$" horiz-adv-x="772" d="M78 352v80h90v-84q0 -117 49 -191.5t168 -74.5t168 74.5t49 191.5q0 86 -38 145.5t-96 108.5t-125 92t-125 96.5t-96 122t-38 168.5q0 152 62.5 246t201.5 109v123h80v-123q72 -6 122 -36t83 -77t47 -108.5t14 -133.5v-32h-90v36q0 57 -11 106.5t-37 84.5t-66.5 55.5 t-98.5 20.5q-117 0 -165 -75t-48 -190q0 -86 38 -147t96.5 -110.5t125 -92.5t125 -96t96 -121.5t37.5 -167.5q0 -72 -15 -133t-47 -108.5t-83 -77t-123 -35.5v-115h-80v115q-72 6 -123 34.5t-83.5 76t-48 110t-15.5 133.5z" />
<glyph unicode="%" horiz-adv-x="1239" d="M78 770v436q0 49 11 91t33.5 73t59.5 49.5t88 18.5q104 0 149.5 -66.5t45.5 -165.5v-436q0 -98 -45 -164.5t-150 -66.5q-51 0 -88 18t-59.5 49t-33.5 73t-11 91zM141 766q0 -68 28 -118t101 -50q72 0 100.5 50t28.5 118v442q0 70 -28.5 120t-100.5 50q-74 0 -101.5 -50 t-27.5 -120v-442zM303 0l565 1436h62l-565 -1436h-62zM774 229v430q0 49 11.5 91.5t34 74t59.5 50t90 18.5q51 0 88 -18.5t60.5 -50t33.5 -73.5t10 -92v-430q0 -49 -10 -91t-33.5 -73.5t-60.5 -50t-88 -18.5q-53 0 -90 18.5t-59.5 50t-34 73.5t-11.5 91zM840 225 q0 -68 28.5 -119t100.5 -51q74 0 101.5 51.5t27.5 118.5v439q0 70 -27.5 118.5t-101.5 48.5q-72 0 -100.5 -49t-28.5 -118v-439z" />
<glyph unicode="&#x26;" horiz-adv-x="825" d="M82 319v136q0 102 45 183t143 114q-98 29 -143 107.5t-45 182.5v35q0 174 85 265.5t259 91.5h203v-86h-203q-250 0 -250 -267v-57q0 -98 51.5 -163.5t145.5 -69.5h221v159h94v-159h78v-86h-78v-517q0 -53 4 -98t33 -90h-98q-16 31 -23.5 62.5t-7.5 74.5 q-33 -76 -96.5 -112.5t-145.5 -36.5q-141 0 -206.5 92t-65.5 239zM176 326q0 -113 50 -182.5t161 -69.5q90 0 147.5 52t59.5 148v431h-209q-102 -6 -155.5 -73t-53.5 -175v-131z" />
<glyph unicode="'" horiz-adv-x="249" d="M80 1436h90l-10 -357h-70z" />
<glyph unicode="(" horiz-adv-x="473" d="M88 317v801q0 76 13.5 134.5t45 99.5t85 62.5t133.5 21.5h45v-80h-41q-55 0 -92 -16.5t-57.5 -47t-29 -74.5t-8.5 -100v-801q0 -55 8.5 -99t29 -74.5t56 -47t93.5 -16.5h41v-80h-45q-80 0 -133.5 21.5t-85 62.5t-45 99.5t-13.5 133.5z" />
<glyph unicode=")" horiz-adv-x="473" d="M63 0v80h41q113 0 151 63.5t38 173.5v801q0 109 -38 173.5t-151 64.5h-41v80h46q160 0 219 -83t59 -235v-801q0 -76 -13.5 -134t-45 -99t-86 -62.5t-133.5 -21.5h-46z" />
<glyph unicode="*" horiz-adv-x="806" d="M68 1143l24 76l291 -109l-21 313h80l-18 -313l291 104l24 -75l-303 -68l195 -242l-64 -47l-164 265l-163 -263l-66 45l197 242z" />
<glyph unicode="+" horiz-adv-x="794" d="M72 682v70h290v295h70v-295h293v-70h-293v-299h-70v299h-290z" />
<glyph unicode="," horiz-adv-x="274" d="M92 -156l41 156h-31v180h91v-172l-60 -164h-41z" />
<glyph unicode="-" horiz-adv-x="532" d="M78 674v86h377v-86h-377z" />
<glyph unicode="." horiz-adv-x="256" d="M82 0v180h92v-180h-92z" />
<glyph unicode="/" horiz-adv-x="759" d="M55 0l566 1434h84l-566 -1434h-84z" />
<glyph unicode="0" d="M76 350v733q0 80 18.5 146.5t57 115t98 75t141.5 26.5t141.5 -26.5t98.5 -75t57.5 -115t18.5 -146.5v-733q0 -78 -18.5 -144.5t-57.5 -114.5t-98.5 -75.5t-141.5 -27.5t-141.5 27.5t-98 75.5t-57 114.5t-18.5 144.5zM170 346q0 -119 51 -195.5t170 -76.5t170 76.5 t51 195.5v744q0 117 -51 193.5t-170 76.5t-170 -77t-51 -193v-744z" />
<glyph unicode="1" horiz-adv-x="575" d="M131 1153v82q106 8 160.5 64.5t83.5 136.5h74v-1436h-95v1274q-39 -51 -95 -83t-128 -38z" />
<glyph unicode="2" horiz-adv-x="772" d="M82 0v70q0 127 39 223t97 175t126 147.5t126 138t97 147.5t39 176q0 125 -48 204t-171 79q-59 0 -100 -21.5t-66.5 -59.5t-37 -88t-11.5 -108v-98h-90v92q0 78 17.5 145.5t54 117t95 78t142.5 28.5t142.5 -27.5t95.5 -77t54 -116t17 -144.5q0 -102 -38.5 -186t-96 -157.5 t-125 -142.5t-126 -143.5t-97.5 -159.5t-41 -190v-16h512v-86h-606z" />
<glyph unicode="3" horiz-adv-x="774" d="M78 350v82h90v-86q0 -59 11 -108.5t38 -86t68 -57t100 -20.5q119 0 168 77.5t49 200.5v111q0 113 -54 175t-159 67h-96v86h100q98 6 153.5 70.5t55.5 168.5v51q0 123 -49 201t-168 78t-168 -77t-49 -193v-58h-90v51q0 78 17.5 144.5t55 115t96 76t140.5 27.5t140.5 -27.5 t96.5 -76t55 -115t17 -144.5v-34q0 -106 -49 -185.5t-141 -111.5q98 -29 144 -107t46 -184v-111q0 -78 -17 -144.5t-55 -114.5t-96.5 -75.5t-140.5 -27.5t-140.5 27.5t-96 75.5t-55 114.5t-17.5 144.5z" />
<glyph unicode="4" horiz-adv-x="825" d="M63 317v89l476 1030h106v-1033h121v-86h-121v-317h-92v317h-490zM150 403h403v857z" />
<glyph unicode="5" horiz-adv-x="774" d="M78 350v78h90v-82q0 -57 12.5 -106.5t38 -86t66.5 -57t100 -20.5t101 20.5t68 57t38 86t12 106.5v242q0 57 -12 106t-38 86t-68 57.5t-101 20.5q-160 0 -205 -164v-24h-88l37 766h539v-88h-453l-27 -512q37 59 94.5 84.5t137.5 25.5q74 0 127 -26.5t87 -73.5t49 -111.5 t15 -138.5v-246q0 -78 -17 -144.5t-55 -114.5t-97.5 -75.5t-141.5 -27.5t-140.5 27.5t-96 75.5t-55 114.5t-17.5 144.5z" />
<glyph unicode="6" horiz-adv-x="782" d="M76 350v729q0 80 18.5 147.5t56 117t98 76t144.5 26.5q82 0 140.5 -26.5t96.5 -74t55 -113t17 -142.5v-17h-90v23q0 115 -49 189.5t-168 74.5q-61 0 -103 -20.5t-69.5 -57.5t-40 -89t-12.5 -116v-332q35 59 96.5 95.5t159.5 36.5q76 0 129 -27t87 -74t50.5 -110.5 t16.5 -139.5v-176q0 -78 -18.5 -144.5t-57.5 -114.5t-98.5 -75.5t-141.5 -27.5q-84 0 -143.5 27.5t-98 75.5t-57 114.5t-18.5 144.5zM170 346q0 -119 51 -194.5t172 -75.5q119 0 170 75.5t51 194.5v174q0 115 -51 191.5t-170 76.5q-121 0 -172 -76.5t-51 -191.5v-174z" />
<glyph unicode="7" horiz-adv-x="774" d="M76 1348v88h622v-86l-403 -1350h-96l403 1348h-526z" />
<glyph unicode="8" horiz-adv-x="794" d="M72 342v102q0 115 42 195t150 113q-104 29 -148 107.5t-44 193.5v45q0 160 80.5 254t244.5 94q162 0 244 -94.5t82 -253.5v-45q0 -111 -44 -192t-147 -109q104 -31 147.5 -113t43.5 -195v-102q0 -158 -81 -256t-245 -98q-166 0 -245.5 97t-79.5 257zM166 344 q0 -125 57.5 -197.5t173.5 -72.5q117 0 173.5 72.5t58.5 197.5v109q-1 252 -232 252t-231 -252v-109zM166 1036q0 -246 231 -245q231 0 232 245v60q0 127 -58.5 195.5t-173.5 68.5q-117 0 -174 -68.5t-57 -195.5v-60z" />
<glyph unicode="9" horiz-adv-x="782" d="M74 909v174q0 80 18.5 146.5t57 115t98 76t141.5 27.5t142.5 -27.5t98.5 -76t56.5 -115t18.5 -146.5v-729q0 -80 -17.5 -147.5t-56.5 -115.5t-98.5 -75.5t-143.5 -27.5q-82 0 -141.5 26.5t-97 73.5t-56 113.5t-18.5 144.5v19h90v-23q0 -117 51 -192.5t170 -75.5 q121 0 172 77.5t51 206.5v353q-35 -80 -96 -116t-158 -36q-76 0 -129 26.5t-87 73t-50 111t-16 139.5zM168 915q0 -117 51 -193.5t170 -76.5t170 77t51 193v175q0 117 -51 193.5t-170 76.5t-170 -77t-51 -193v-175z" />
<glyph unicode=":" horiz-adv-x="256" d="M82 0v180h92v-180h-92zM82 780v181h92v-181h-92z" />
<glyph unicode=";" horiz-adv-x="274" d="M92 -156l41 156h-31v180h91v-172l-60 -164h-41zM102 780v181h91v-181h-91z" />
<glyph unicode="&#x3c;" horiz-adv-x="757" d="M74 682v70l602 274v-74l-510 -235l510 -236v-73z" />
<glyph unicode="=" horiz-adv-x="624" d="M78 586v69h469v-69h-469zM78 836v69h469v-69h-469z" />
<glyph unicode="&#x3e;" horiz-adv-x="757" d="M82 408v73l512 236l-512 235v74l602 -274v-70z" />
<glyph unicode="?" horiz-adv-x="743" d="M68 983v94q0 78 16 145.5t53 117t94.5 78t141.5 28.5t142 -27.5t94 -77t52.5 -116t16.5 -144.5q0 -80 -22.5 -142t-55.5 -114.5t-72 -98.5t-71.5 -96t-55 -106.5t-22.5 -128.5q0 -35 10 -76h-86q-10 41 -10 80q0 78 21.5 137.5t54 110.5t69.5 97.5t70 96.5t54.5 108.5 t21.5 135.5q0 57 -10.5 107.5t-35 87.5t-65.5 58.5t-102 21.5q-59 0 -100.5 -21.5t-66 -59.5t-35.5 -88t-11 -108v-100h-90zM299 0v178h90v-178h-90z" />
<glyph unicode="@" horiz-adv-x="1409" d="M70 586q0 176 42 341t131 290.5t226 201.5t330 76q145 0 248.5 -42t169 -119t96 -183.5t30.5 -235.5q0 -117 -23.5 -228.5t-67.5 -198.5t-109.5 -141t-149.5 -54q-70 0 -103.5 40t-37.5 103q-31 -74 -86 -115.5t-135 -39.5q-61 0 -102.5 25.5t-64 68.5t-28.5 100t0 119 l21 203q6 63 25.5 117.5t51 94.5t76.5 61.5t105 21.5q150 -4 186 -146l14 135h84l-61 -585q-4 -43 11.5 -83t66.5 -40q76 0 125 57t77.5 140t40 176.5t11.5 166.5q0 117 -28 210.5t-86 160t-148 101t-213 34.5q-170 0 -292 -67.5t-200 -183t-114.5 -267t-36.5 -319.5 q0 -287 135 -444.5t424 -157.5q102 0 199.5 26.5t183.5 91.5l-7 -86q-88 -59 -182 -83.5t-198 -24.5q-166 0 -286 47t-198 135t-115.5 215t-37.5 285zM520 507q4 -42 20.5 -74t47 -51.5t80.5 -19.5q47 0 81.5 18.5t59.5 50.5t38 74t17 89l23 199q4 43 -1 81.5t-22.5 68.5 t-49.5 47.5t-77 17.5q-94 0 -141 -63.5t-57 -158.5l-19 -192q-4 -45 0 -87z" />
<glyph unicode="A" horiz-adv-x="892" d="M61 0l314 1436h137l319 -1436h-94l-71 317h-447l-72 -317h-86zM233 399h418l-211 928z" />
<glyph unicode="B" horiz-adv-x="774" d="M82 0v1434h301q162 0 227.5 -78t65.5 -228v-81q0 -117 -40 -189t-149 -94q117 -23 166 -103.5t49 -203.5v-125q0 -156 -73.5 -244t-239.5 -88h-307zM176 86h213q119 0 169 63.5t50 184.5v129q0 139 -63.5 195.5t-190.5 56.5h-178v-629zM176 801h160q63 0 109.5 10 t77 35.5t45 70t14.5 111.5v92q0 113 -43 170.5t-158 57.5h-205v-547z" />
<glyph unicode="C" horiz-adv-x="765" d="M76 350v733q0 78 17.5 144.5t55 115t96 76t140.5 27.5t140.5 -27.5t96 -76t55 -115t17.5 -144.5v-118h-90v125q0 57 -11 106t-38 86t-68 57.5t-100 20.5t-100 -20.5t-67.5 -57.5t-38 -86t-11.5 -106v-746q0 -57 11.5 -106.5t38 -85t67.5 -56t100 -20.5t100 20.5t68 56 t38 85t11 106.5v170h90v-164q0 -78 -17.5 -144.5t-55 -114.5t-96 -75.5t-140.5 -27.5t-140.5 27.5t-96 75.5t-55 114.5t-17.5 144.5z" />
<glyph unicode="D" horiz-adv-x="788" d="M82 0v1434h315q82 0 142.5 -26t99.5 -73t57.5 -112.5t18.5 -145.5v-721q0 -80 -18.5 -145.5t-57.5 -112.5t-99.5 -72.5t-142.5 -25.5h-315zM176 86h219q121 0 173.5 73.5t52.5 192.5v729q0 119 -53.5 193t-172.5 74h-219v-1262z" />
<glyph unicode="E" horiz-adv-x="718" d="M82 0v1434h565v-86h-471v-578h391v-86h-391v-598h471v-86h-565z" />
<glyph unicode="F" horiz-adv-x="688" d="M82 0v1434h545v-86h-451v-613h371v-86h-371v-649h-94z" />
<glyph unicode="G" horiz-adv-x="770" d="M76 350v733q0 78 17.5 144.5t55 115t96 76t140.5 27.5t140.5 -27.5t96 -76t55 -115t17.5 -144.5v-106h-90v113q0 57 -11 106t-38 86t-68 57.5t-100 20.5t-100 -20.5t-67.5 -57.5t-38 -86t-11.5 -106v-746q0 -57 11.5 -106.5t38 -85t67.5 -56t100 -20.5t100 20.5t68 56 t38 85t11 106.5v309h-190v86h280v-389q0 -78 -17.5 -144.5t-55 -114.5t-96 -75.5t-140.5 -27.5t-140.5 27.5t-96 75.5t-55 114.5t-17.5 144.5z" />
<glyph unicode="H" horiz-adv-x="800" d="M82 0v1434h94v-674h447v674h96v-1434h-96v674h-447v-674h-94z" />
<glyph unicode="I" horiz-adv-x="258" d="M82 0v1434h94v-1434h-94z" />
<glyph unicode="J" horiz-adv-x="518" d="M59 0v86q23 -2 43.5 -1t40.5 3q102 8 152.5 66.5t50.5 191.5v1088h94v-1082q0 -188 -77.5 -267t-208.5 -85q-22 -1 -46 -1t-49 1z" />
<glyph unicode="K" horiz-adv-x="827" d="M82 0v1434h94v-758l467 758h98l-409 -668l436 -766h-98l-396 674l-98 -156v-518h-94z" />
<glyph unicode="L" horiz-adv-x="686" d="M82 0v1434h94v-1348h451v-86h-545z" />
<glyph unicode="M" horiz-adv-x="1034" d="M82 0v1434h135l301 -1268l299 1268h135v-1434h-90v1274l-299 -1272h-94l-303 1268v-1270h-84z" />
<glyph unicode="N" horiz-adv-x="800" d="M82 0v1434h123l430 -1211v1211h86v-1434h-105l-448 1278v-1278h-86z" />
<glyph unicode="O" d="M76 350v733q0 78 18.5 144.5t56 115t97 76t141.5 27.5t142.5 -27.5t99.5 -76t57.5 -115t18.5 -144.5v-733q0 -78 -18.5 -144.5t-57.5 -114.5t-99.5 -75.5t-142.5 -27.5t-141.5 27.5t-97 75.5t-56 114.5t-18.5 144.5zM170 344q0 -117 50 -193.5t169 -76.5t171 76.5 t52 193.5v746q0 117 -52 193.5t-171 76.5t-169 -77t-50 -193v-746z" />
<glyph unicode="P" horiz-adv-x="749" d="M82 0v1434h297q166 0 236.5 -95.5t70.5 -253.5v-155q0 -172 -80 -256t-252 -84h-178v-590h-94zM176 676h178q125 0 181.5 58.5t56.5 189.5v168q0 117 -46 186.5t-167 69.5h-203v-672z" />
<glyph unicode="Q" horiz-adv-x="835" d="M76 350v733q0 78 18.5 144.5t57 115t98 76t141.5 27.5t141.5 -27.5t98.5 -76t57.5 -115t18.5 -144.5v-733q0 -74 -16.5 -137t-51.5 -111q18 -33 46 -45t67 -12h22v-84h-24q-119 0 -170 84q-35 -27 -82 -42t-107 -15q-82 0 -141.5 27.5t-98 75.5t-57 114.5t-18.5 144.5z M170 344q0 -117 51 -193.5t170 -76.5t170 76.5t51 193.5v746q0 117 -51 193.5t-170 76.5t-170 -77t-51 -193v-746z" />
<glyph unicode="R" horiz-adv-x="790" d="M82 0v1434h299q164 0 235.5 -86t71.5 -238v-125q0 -250 -207 -297q111 -25 159 -100.5t48 -192.5v-223q0 -45 6 -91t29 -81h-98q-18 33 -24.5 73t-6.5 99v225q0 72 -18.5 119t-54.5 74.5t-85 39t-110 11.5h-150v-641h-94zM176 727h152q63 0 112 10.5t83 37t52.5 73.5 t18.5 119v135q0 117 -49 181.5t-166 64.5h-203v-621z" />
<glyph unicode="S" horiz-adv-x="757" d="M70 346v74h90v-80q0 -115 49 -189.5t168 -74.5t168 74.5t49 189.5q0 86 -38 147.5t-96.5 111.5t-125 95t-124.5 99.5t-96 125t-38 171.5q0 162 72.5 258t232.5 98q82 0 139.5 -26.5t94 -75t54 -114t17.5 -143.5v-30h-90v37q0 57 -11.5 105t-37 84t-66.5 56.5t-98 20.5 q-117 0 -165 -75t-48 -189q0 -88 38 -149.5t96 -112t125 -96.5t125 -100t96 -124t38 -168q0 -78 -17.5 -143.5t-55 -113.5t-96 -74.5t-140.5 -26.5t-140.5 26.5t-96.5 74.5t-55 113.5t-17 143.5z" />
<glyph unicode="T" horiz-adv-x="755" d="M37 1348v86h678v-86h-291v-1348h-94v1348h-293z" />
<glyph unicode="U" horiz-adv-x="770" d="M78 350v1084h94v-1088q0 -57 11.5 -107.5t37 -87t66.5 -57t100 -20.5t100 20.5t67 57t37 87t11 107.5v1088h88v-1084q0 -78 -16.5 -143.5t-53 -114.5t-95 -76.5t-140.5 -27.5t-140.5 27.5t-95 76.5t-54 114.5t-17.5 143.5z" />
<glyph unicode="V" horiz-adv-x="888" d="M61 1434h97l291 -1325l290 1325h88l-311 -1434h-139z" />
<glyph unicode="W" horiz-adv-x="1234" d="M63 1434h93l215 -1307l209 1300h100l201 -1296l206 1303h84l-229 -1434h-123l-192 1174l-201 -1174h-131z" />
<glyph unicode="X" horiz-adv-x="901" d="M63 0l324 743l-301 691h98l271 -617l272 617h90l-301 -691l322 -743h-101l-291 668l-290 -668h-93z" />
<glyph unicode="Y" horiz-adv-x="849" d="M55 1434h99l274 -754l274 754h93l-324 -883v-551h-94v551z" />
<glyph unicode="Z" horiz-adv-x="794" d="M70 0v86l555 1262h-529v86h627v-88l-555 -1260h547v-86h-645z" />
<glyph unicode="[" horiz-adv-x="475" d="M88 0v1436h320v-80h-226v-1276h226v-80h-320z" />
<glyph unicode="\" horiz-adv-x="759" d="M55 1434h84l566 -1434h-84z" />
<glyph unicode="]" horiz-adv-x="475" d="M70 0v80h225v1276h-225v80h319v-1436h-319z" />
<glyph unicode="^" horiz-adv-x="837" d="M68 801l315 633h72l315 -633h-80l-272 545l-271 -545h-79z" />
<glyph unicode="_" horiz-adv-x="1050" d="M53 -20h932v-72h-932v72z" />
<glyph unicode="`" horiz-adv-x="403" d="M84 1737h102l146 -195h-74z" />
<glyph unicode="a" horiz-adv-x="892" d="M61 0l314 1436h137l319 -1436h-94l-71 317h-447l-72 -317h-86zM233 399h418l-211 928z" />
<glyph unicode="b" horiz-adv-x="774" d="M82 0v1434h301q162 0 227.5 -78t65.5 -228v-81q0 -117 -40 -189t-149 -94q117 -23 166 -103.5t49 -203.5v-125q0 -156 -73.5 -244t-239.5 -88h-307zM176 86h213q119 0 169 63.5t50 184.5v129q0 139 -63.5 195.5t-190.5 56.5h-178v-629zM176 801h160q63 0 109.5 10 t77 35.5t45 70t14.5 111.5v92q0 113 -43 170.5t-158 57.5h-205v-547z" />
<glyph unicode="c" horiz-adv-x="765" d="M76 350v733q0 78 17.5 144.5t55 115t96 76t140.5 27.5t140.5 -27.5t96 -76t55 -115t17.5 -144.5v-118h-90v125q0 57 -11 106t-38 86t-68 57.5t-100 20.5t-100 -20.5t-67.5 -57.5t-38 -86t-11.5 -106v-746q0 -57 11.5 -106.5t38 -85t67.5 -56t100 -20.5t100 20.5t68 56 t38 85t11 106.5v170h90v-164q0 -78 -17.5 -144.5t-55 -114.5t-96 -75.5t-140.5 -27.5t-140.5 27.5t-96 75.5t-55 114.5t-17.5 144.5z" />
<glyph unicode="d" horiz-adv-x="788" d="M82 0v1434h315q82 0 142.5 -26t99.5 -73t57.5 -112.5t18.5 -145.5v-721q0 -80 -18.5 -145.5t-57.5 -112.5t-99.5 -72.5t-142.5 -25.5h-315zM176 86h219q121 0 173.5 73.5t52.5 192.5v729q0 119 -53.5 193t-172.5 74h-219v-1262z" />
<glyph unicode="e" horiz-adv-x="718" d="M82 0v1434h565v-86h-471v-578h391v-86h-391v-598h471v-86h-565z" />
<glyph unicode="f" horiz-adv-x="688" d="M82 0v1434h545v-86h-451v-613h371v-86h-371v-649h-94z" />
<glyph unicode="g" horiz-adv-x="770" d="M76 350v733q0 78 17.5 144.5t55 115t96 76t140.5 27.5t140.5 -27.5t96 -76t55 -115t17.5 -144.5v-106h-90v113q0 57 -11 106t-38 86t-68 57.5t-100 20.5t-100 -20.5t-67.5 -57.5t-38 -86t-11.5 -106v-746q0 -57 11.5 -106.5t38 -85t67.5 -56t100 -20.5t100 20.5t68 56 t38 85t11 106.5v309h-190v86h280v-389q0 -78 -17.5 -144.5t-55 -114.5t-96 -75.5t-140.5 -27.5t-140.5 27.5t-96 75.5t-55 114.5t-17.5 144.5z" />
<glyph unicode="h" horiz-adv-x="800" d="M82 0v1434h94v-674h447v674h96v-1434h-96v674h-447v-674h-94z" />
<glyph unicode="i" horiz-adv-x="258" d="M82 0v1434h94v-1434h-94z" />
<glyph unicode="j" horiz-adv-x="518" d="M59 0v86q23 -2 43.5 -1t40.5 3q102 8 152.5 66.5t50.5 191.5v1088h94v-1082q0 -188 -77.5 -267t-208.5 -85q-22 -1 -46 -1t-49 1z" />
<glyph unicode="k" horiz-adv-x="827" d="M82 0v1434h94v-758l467 758h98l-409 -668l436 -766h-98l-396 674l-98 -156v-518h-94z" />
<glyph unicode="l" horiz-adv-x="686" d="M82 0v1434h94v-1348h451v-86h-545z" />
<glyph unicode="m" horiz-adv-x="1034" d="M82 0v1434h135l301 -1268l299 1268h135v-1434h-90v1274l-299 -1272h-94l-303 1268v-1270h-84z" />
<glyph unicode="n" horiz-adv-x="800" d="M82 0v1434h123l430 -1211v1211h86v-1434h-105l-448 1278v-1278h-86z" />
<glyph unicode="o" d="M76 350v733q0 78 18.5 144.5t56 115t97 76t141.5 27.5t142.5 -27.5t99.5 -76t57.5 -115t18.5 -144.5v-733q0 -78 -18.5 -144.5t-57.5 -114.5t-99.5 -75.5t-142.5 -27.5t-141.5 27.5t-97 75.5t-56 114.5t-18.5 144.5zM170 344q0 -117 50 -193.5t169 -76.5t171 76.5 t52 193.5v746q0 117 -52 193.5t-171 76.5t-169 -77t-50 -193v-746z" />
<glyph unicode="p" horiz-adv-x="745" d="M82 0v1434h297q166 0 236.5 -95.5t70.5 -253.5v-155q0 -172 -80 -256t-252 -84h-178v-590h-94zM176 676h178q125 0 181.5 58.5t56.5 189.5v168q0 117 -46 186.5t-167 69.5h-203v-672z" />
<glyph unicode="q" horiz-adv-x="796" d="M76 350v733q0 78 18.5 144.5t57 115t98 76t141.5 27.5t141.5 -27.5t98.5 -76t57.5 -115t18.5 -144.5v-733q0 -74 -16.5 -137t-51.5 -111q18 -33 46 -45t67 -12h22v-84h-24q-119 0 -170 84q-35 -27 -82 -42t-107 -15q-82 0 -141.5 27.5t-98 75.5t-57 114.5t-18.5 144.5z M170 344q0 -117 51 -193.5t170 -76.5t170 76.5t51 193.5v746q0 117 -51 193.5t-170 76.5t-170 -77t-51 -193v-746z" />
<glyph unicode="r" horiz-adv-x="790" d="M82 0v1434h299q164 0 235.5 -86t71.5 -238v-125q0 -250 -207 -297q111 -25 159 -100.5t48 -192.5v-223q0 -45 6 -91t29 -81h-98q-18 33 -24.5 73t-6.5 99v225q0 72 -18.5 119t-54.5 74.5t-85 39t-110 11.5h-150v-641h-94zM176 727h152q63 0 112 10.5t83 37t52.5 73.5 t18.5 119v135q0 117 -49 181.5t-166 64.5h-203v-621z" />
<glyph unicode="s" horiz-adv-x="757" d="M70 346v74h90v-80q0 -115 49 -189.5t168 -74.5t168 74.5t49 189.5q0 86 -38 147.5t-96.5 111.5t-125 95t-124.5 99.5t-96 125t-38 171.5q0 162 72.5 258t232.5 98q82 0 139.5 -26.5t94 -75t54 -114t17.5 -143.5v-30h-90v37q0 57 -11.5 105t-37 84t-66.5 56.5t-98 20.5 q-117 0 -165 -75t-48 -189q0 -88 38 -149.5t96 -112t125 -96.5t125 -100t96 -124t38 -168q0 -78 -17.5 -143.5t-55 -113.5t-96 -74.5t-140.5 -26.5t-140.5 26.5t-96.5 74.5t-55 113.5t-17 143.5z" />
<glyph unicode="t" horiz-adv-x="745" d="M33 1348v86h678v-86h-293v-1348h-94v1348h-291z" />
<glyph unicode="u" horiz-adv-x="770" d="M78 350v1084h94v-1088q0 -57 11.5 -107.5t37 -87t66.5 -57t100 -20.5t100 20.5t67 57t37 87t11 107.5v1088h88v-1084q0 -78 -16.5 -143.5t-53 -114.5t-95 -76.5t-140.5 -27.5t-140.5 27.5t-95 76.5t-54 114.5t-17.5 143.5z" />
<glyph unicode="v" horiz-adv-x="888" d="M61 1434h97l291 -1325l290 1325h88l-311 -1434h-139z" />
<glyph unicode="w" horiz-adv-x="1234" d="M63 1434h93l215 -1307l209 1300h100l201 -1296l206 1303h84l-229 -1434h-123l-192 1174l-201 -1174h-131z" />
<glyph unicode="x" horiz-adv-x="901" d="M63 0l324 743l-301 691h98l271 -617l272 617h90l-301 -691l322 -743h-101l-291 668l-290 -668h-93z" />
<glyph unicode="y" horiz-adv-x="849" d="M55 1434h99l274 -754l274 754h93l-324 -883v-551h-94v551z" />
<glyph unicode="z" horiz-adv-x="794" d="M70 0v86l555 1262h-529v86h627v-88l-555 -1260h547v-86h-645z" />
<glyph unicode="{" horiz-adv-x="524" d="M61 674v86q43 6 68 20.5t38 36t17 52t6 71.5l15 283q6 94 45 153.5t135 59.5h76v-80h-45q-76 0 -98.5 -47t-26.5 -123l-12 -258q-2 -37 -7.5 -70t-18.5 -60.5t-39 -48t-69 -32.5q43 -12 69 -32.5t39 -48.5t18 -60.5t8 -69.5l12 -256q4 -78 26.5 -124t98.5 -46h45v-80h-76 q-96 0 -135 58.5t-45 154.5l-15 281q-2 41 -6 71.5t-17 53t-38 36t-68 19.5z" />
<glyph unicode="|" horiz-adv-x="512" d="M221 -47v1530h78v-1530h-78z" />
<glyph unicode="}" horiz-adv-x="524" d="M63 0v80h48q74 0 96 46t26 124l15 256q2 37 6 69.5t18.5 60.5t40 48.5t68.5 32.5q-43 12 -68.5 32.5t-40 48t-18.5 60.5t-6 70l-15 258q-4 78 -26.5 124t-95.5 46h-48v80h76q96 0 135 -59.5t45 -153.5l15 -283q2 -41 7 -71.5t18.5 -52t38 -36t67.5 -20.5v-86 q-43 -6 -67.5 -19.5t-38 -36t-18.5 -53t-7 -71.5l-15 -281q-6 -96 -44.5 -154.5t-135.5 -58.5h-76z" />
<glyph unicode="~" horiz-adv-x="813" d="M57 674q45 72 91.5 106.5t105.5 34.5q45 2 87 -18.5t81 -44t77 -44t74 -18.5q43 2 72 33t60 78l49 -47q-41 -66 -83 -101t-96 -39q-45 -2 -85.5 18.5t-79.5 45t-78 44t-80 19.5q-47 0 -80 -28.5t-66 -81.5z" />
<glyph unicode="&#xa1;" horiz-adv-x="258" d="M82 0v668l12 450h70l12 -450v-668h-94zM84 1255v181h90v-181h-90z" />
<glyph unicode="&#xa2;" horiz-adv-x="772" d="M80 446v543q0 72 14.5 134.5t47 110.5t82.5 77.5t122 36.5v96h80v-96q72 -6 123 -34t84 -74t48 -107.5t15 -133.5v-65h-90v70q0 117 -49 188.5t-168 71.5q-59 0 -99 -20.5t-66.5 -56.5t-38 -85t-11.5 -107v-553q0 -57 11.5 -106t38 -86t66.5 -57.5t99 -20.5q119 0 168 76 t49 190v113h90v-107q0 -74 -15 -136t-48 -109t-84 -76t-123 -35v-98h-80v98q-72 6 -122 36t-82.5 78t-47 110.5t-14.5 133.5z" />
<glyph unicode="&#xa3;" horiz-adv-x="790" d="M74 0v84q43 33 84 76t69.5 95t43 111.5t5.5 125.5h-176v75h162q-20 66 -48 120t-53.5 110.5t-44 124t-18.5 159.5q0 78 16.5 144.5t53.5 116t95.5 77t142.5 27.5q82 0 139 -28.5t93 -79t52.5 -118t16.5 -143.5v-88h-89v92q0 57 -11 107.5t-35.5 88.5t-64.5 60.5t-99 22.5 q-61 0 -102.5 -21.5t-66 -58.5t-35.5 -87t-11 -108q0 -92 18 -159.5t44 -124t53.5 -111.5t45.5 -123h301v-75h-293q6 -45 1 -90.5t-24.5 -94.5t-55 -103t-90.5 -118h518v-86h-637z" />
<glyph unicode="&#xa4;" horiz-adv-x="714" d="M76 477l96 94q-49 66 -49 146q0 82 49 143l-96 96l41 41l98 -96q61 49 141 49t146 -49l96 96l41 -41l-98 -96q51 -61 51 -143t-51 -144l98 -96l-41 -41l-96 94q-59 -47 -146 -47q-80 0 -143 47l-96 -94zM184 717q0 -37 13.5 -68t37 -54.5t55.5 -36.5t66 -13q72 0 123 50 t51 122t-51 122t-123 50q-35 0 -66.5 -13.5t-55 -37t-37 -54t-13.5 -67.5z" />
<glyph unicode="&#xa5;" horiz-adv-x="882" d="M57 1434h101l286 -766l289 766h90l-329 -873h217v-53h-224v-150h224v-53h-224v-305h-94v305h-221v53h221v150h-221v53h213z" />
<glyph unicode="&#xa6;" horiz-adv-x="514" d="M221 -47v643h80v-643h-80zM221 838v643h80v-643h-80z" />
<glyph unicode="&#xa7;" horiz-adv-x="774" d="M80 125v68h88v-58q0 -47 17.5 -83t48 -60.5t70.5 -36.5t83 -12q39 0 77 10t68.5 31.5t49 54.5t20.5 76q2 63 -36 104t-96 72t-126 58.5t-126 66.5t-97 95t-39 144q0 100 64.5 168t152.5 99q-43 20 -83 44.5t-70.5 56.5t-48 73t-17.5 96q2 61 26.5 108.5t66.5 80t97 49 t121 16.5q131 -2 215 -71.5t84 -190.5v-39h-90v26q0 92 -60.5 142.5t-146.5 52.5q-86 0 -150.5 -42t-68.5 -136q-2 -61 37 -101t96.5 -71t125 -59.5t125.5 -68.5t97 -96.5t39 -144.5q0 -98 -56 -165.5t-142 -106.5q41 -20 77.5 -44t64.5 -54.5t43 -71.5t15 -94 q-2 -57 -26.5 -103.5t-66.5 -78t-97 -49t-117 -17.5q-68 0 -124 17.5t-97 51t-64.5 81.5t-23.5 112zM172 659q0 -53 22.5 -90t57.5 -65.5t78 -49t84 -38.5q78 23 134 80t56 147q0 47 -18.5 83t-49 63.5t-69.5 50.5t-80 41q-41 -6 -80 -24.5t-68.5 -47.5t-48 -66.5 t-18.5 -83.5z" />
<glyph unicode="&#xa8;" horiz-adv-x="389" d="M139 1526v174h111v-174h-111z" />
<glyph unicode="&#xa9;" horiz-adv-x="1531" d="M68 717q0 154 52 285t145 227t221 150.5t280 54.5t280 -54.5t221 -150.5t145 -227.5t52 -284.5q0 -154 -52 -285t-145 -227t-221 -150.5t-280 -54.5t-280 54.5t-221 150.5t-145 227t-52 285zM133 717q0 -139 47 -259t131 -207t200 -137.5t255 -50.5q137 0 254 50.5 t200 137.5t130 207t47 259t-47 259t-130 207t-200 137t-254 50q-139 0 -255 -50t-200 -137t-131 -207t-47 -259zM541 518v395q0 109 51 180.5t166 71.5q113 0 163 -70.5t50 -181.5v-49h-66v54q0 78 -32.5 131t-114.5 53q-80 0 -114 -53.5t-34 -130.5v-402q0 -78 34 -131 t114 -53q82 0 114.5 53t32.5 131v76h66v-74q0 -109 -50.5 -180.5t-162.5 -71.5q-115 0 -166 72t-51 180z" />
<glyph unicode="&#xaa;" horiz-adv-x="559" d="M74 874v7q0 74 30.5 120t79.5 71.5t110.5 35.5t121.5 10v111q0 66 -23.5 110.5t-95.5 44.5t-101.5 -44t-29.5 -117v-25h-62v23q0 100 45.5 161.5t149.5 61.5q102 0 141 -63.5t39 -159.5v-533h-55l-4 127q-20 -61 -63.5 -99t-110.5 -38q-86 0 -129 52t-43 144zM78 485v64 h401v-64h-401zM139 879q0 -66 31 -104t96 -38q72 0 107 52.5t43 117.5v160q-51 0 -101.5 -9t-89.5 -29.5t-62.5 -54.5t-23.5 -85v-10z" />
<glyph unicode="&#xab;" horiz-adv-x="583" d="M63 719l136 502h86l-133 -502l133 -512h-86zM301 719l133 502h86l-133 -502l133 -512h-86z" />
<glyph unicode="&#xac;" horiz-adv-x="778" d="M72 682v70h635v-344h-70v274h-565z" />
<glyph unicode="&#xad;" horiz-adv-x="532" d="M78 674v86h377v-86h-377z" />
<glyph unicode="&#xae;" horiz-adv-x="1531" d="M68 717q0 154 52 285t145 227t221 150.5t280 54.5t280 -54.5t221 -150.5t145 -227.5t52 -284.5q0 -154 -52 -285t-145 -227t-221 -150.5t-280 -54.5t-280 54.5t-221 150.5t-145 227t-52 285zM133 717q0 -139 47 -259t131 -207t200 -137.5t255 -50.5q137 0 254 50.5 t200 137.5t130 207t47 259t-47 259t-130 207t-200 137t-254 50q-139 0 -255 -50t-200 -137t-131 -207t-47 -259zM563 279v876h211q115 0 165 -59.5t50 -167.5v-27q0 -78 -29.5 -131t-101.5 -76q72 -23 101.5 -74t29.5 -128v-95q0 -29 4 -62.5t21 -55.5h-72q-14 25 -18 52 t-4 68v95q0 100 -52.5 132.5t-136.5 32.5h-98v-380h-70zM633 725h117q86 0 128 36t42 128v31q0 82 -33 126t-117 44h-137v-365z" />
<glyph unicode="&#xaf;" horiz-adv-x="518" d="M59 1530v69h398v-69h-398z" />
<glyph unicode="&#xb0;" horiz-adv-x="430" d="M63 1300q0 63 44.5 106.5t107.5 43.5t107.5 -43t44.5 -107q0 -63 -44 -106t-108 -43q-63 0 -107.5 43t-44.5 106zM113 1300q0 -43 29.5 -71.5t72.5 -28.5q41 0 71.5 28.5t30.5 71.5t-30.5 72t-71.5 29q-43 0 -72.5 -29t-29.5 -72z" />
<glyph unicode="&#xb1;" horiz-adv-x="794" d="M78 383v72h284v241h-284v72h284v279h70v-279h285v-72h-285v-241h285v-72h-639z" />
<glyph unicode="&#xb2;" horiz-adv-x="555" d="M84 719v47q0 80 24.5 140.5t61.5 110.5t80 93t80 87t61.5 93t24.5 113q0 78 -30 127t-105 49q-76 0 -106 -50t-30 -124v-62h-61v60q0 49 11 92t35 75t62 50t91 18q109 0 153.5 -66.5t44.5 -166.5q0 -66 -24.5 -119t-60.5 -99t-79 -89t-80.5 -90t-62 -100.5t-27.5 -121.5 v-8h324v-59h-387z" />
<glyph unicode="&#xb3;" horiz-adv-x="555" d="M80 940v51h61v-55q0 -72 31 -120t104 -48q74 0 105 48t31 126v70q0 68 -34 108.5t-99 40.5h-62v60h64q59 0 96 45t35 106v33q0 78 -31 126t-105 48t-104.5 -48t-30.5 -120v-37h-61v33q0 100 46.5 165.5t152.5 65.5q104 0 150 -65.5t46 -165.5v-23q0 -66 -27.5 -115.5 t-87.5 -72.5q59 -23 87 -71t28 -113v-72q0 -100 -46 -165.5t-150 -65.5q-106 0 -152.5 65.5t-46.5 165.5z" />
<glyph unicode="&#xb4;" horiz-adv-x="403" d="M72 1542l147 195h96l-172 -195h-71z" />
<glyph unicode="&#xb5;" horiz-adv-x="817" d="M98 -188v1212h95v-674q0 -117 49 -193.5t164 -76.5t165 76.5t50 193.5v674h94v-1024h-86v186q-27 -90 -87.5 -142t-150.5 -52q-84 0 -133 44t-68 111l3 -335h-95z" />
<glyph unicode="&#xb6;" horiz-adv-x="811" d="M49 932v162q0 78 13.5 140t46 106t87 69t138.5 25h373v-1561h-72v1489h-256v-1489h-72v719q-141 6 -199.5 93t-58.5 247z" />
<glyph unicode="&#xb7;" horiz-adv-x="256" d="M82 647v180h92v-180h-92z" />
<glyph unicode="&#xb8;" horiz-adv-x="505" d="M72 -174h67v-10q0 -45 38 -62.5t75 -19.5q41 0 77 18.5t36 65.5q0 49 -36 63.5t-81 14.5h-15v114h48v-90q66 -2 109.5 -22.5t43.5 -81.5q0 -37 -15.5 -60.5t-41 -38t-58 -19.5t-67.5 -5q-33 0 -65.5 6t-58.5 20.5t-41 37t-15 57.5v12z" />
<glyph unicode="&#xb9;" horiz-adv-x="364" d="M72 1454v51q66 4 99.5 38t51.5 85h51v-909h-65v805q-25 -29 -59.5 -47.5t-77.5 -22.5z" />
<glyph unicode="&#xba;" horiz-adv-x="561" d="M78 903v309q0 100 48.5 166t154.5 66t154 -65.5t48 -166.5v-309q0 -100 -48 -165.5t-154 -65.5t-154.5 65.5t-48.5 165.5zM80 487v64h403v-64h-403zM141 899q0 -72 32 -120t108 -48q74 0 105.5 48t31.5 120v318q0 72 -31.5 119.5t-105.5 47.5q-76 0 -108 -48t-32 -119 v-318z" />
<glyph unicode="&#xbb;" horiz-adv-x="583" d="M63 207l134 512l-134 502h87l135 -502l-135 -512h-87zM301 207l131 512l-131 502h86l133 -502l-133 -512h-86z" />
<glyph unicode="&#xbc;" horiz-adv-x="1081" d="M100 1311q66 4 101 37.5t51 85.5h51v-910h-65v805q-25 -29 -60 -47t-76 -22zM231 0l566 1434h59l-565 -1434h-60zM565 197v59l301 653h74v-653h74v-59h-74v-197h-63v197h-312zM627 256h250v530z" />
<glyph unicode="&#xbd;" horiz-adv-x="1173" d="M100 1311q66 4 101 37.5t51 85.5h51v-910h-65v805q-25 -29 -60 -47t-76 -22zM209 0l565 1434h62l-566 -1434h-61zM700 0v47q0 80 25 140.5t61.5 110.5t80.5 93t81 87t61.5 93.5t24.5 112.5q0 78 -29.5 127t-105.5 49t-106.5 -50t-30.5 -124v-61h-62v59q0 100 46.5 168 t152.5 68q109 0 154 -67t45 -167q0 -66 -24.5 -118t-60.5 -98t-79 -89t-80 -90t-61.5 -100.5t-26.5 -120.5v-11h321v-59h-387z" />
<glyph unicode="&#xbe;" horiz-adv-x="1183" d="M80 745v52h61v-56q0 -72 31 -120t104 -48q74 0 105 48.5t31 126.5v69q0 68 -34 109t-99 41h-62v59h64q59 0 96 45t35 107v32q0 78 -31 126t-105 48t-104.5 -48t-30.5 -119v-37h-61v32q0 100 46.5 166t152.5 66q104 0 150 -65.5t46 -166.5v-22q0 -66 -27.5 -116t-87.5 -73 q59 -23 87 -70.5t28 -113.5v-72q0 -100 -46 -165.5t-150 -65.5q-106 0 -152.5 65.5t-46.5 165.5zM340 0l565 1434h62l-566 -1434h-61zM668 197v59l301 653h73v-653h74v-59h-74v-197h-65v197h-309zM729 256h248v530z" />
<glyph unicode="&#xbf;" horiz-adv-x="743" d="M63 352q0 80 23 142.5t55.5 115t71.5 98.5t71.5 96t55 106.5t22.5 127.5q0 16 -2 37t-6 39h84q12 -37 13 -80q0 -78 -22.5 -137t-54.5 -110.5t-70 -97.5t-70.5 -96t-54 -109.5t-21.5 -135.5q0 -59 10 -109.5t35.5 -87t66.5 -57t103 -20.5q59 0 100 21.5t65.5 59.5t36 88 t11.5 107v101h90v-95q0 -78 -16.5 -145.5t-53.5 -116.5t-95 -77.5t-140 -28.5q-84 0 -142.5 27.5t-95.5 76.5t-53.5 115.5t-16.5 144.5zM352 1255v179h92v-179h-92z" />
<glyph unicode="&#xc0;" horiz-adv-x="892" d="M61 0l314 1436h137l319 -1436h-94l-71 317h-447l-72 -317h-86zM233 399h418l-211 928zM276 1704h103l145 -195h-73z" />
<glyph unicode="&#xc1;" horiz-adv-x="892" d="M61 0l314 1436h137l319 -1436h-94l-71 317h-447l-72 -317h-86zM233 399h418l-211 928zM350 1511l146 195h98l-172 -195h-72z" />
<glyph unicode="&#xc2;" horiz-adv-x="892" d="M61 0l314 1436h137l319 -1436h-94l-71 317h-447l-72 -317h-86zM229 1509l172 185h82l174 -185h-90l-125 129l-125 -129h-88zM233 399h418l-211 928z" />
<glyph unicode="&#xc3;" horiz-adv-x="892" d="M61 0l314 1436h137l319 -1436h-94l-71 317h-447l-72 -317h-86zM219 1569q43 94 129 98q29 0 53.5 -11t48 -24.5t45 -24t44.5 -10.5q27 2 44 18.5t31 45.5l52 -35q-20 -45 -49 -70.5t-70 -25.5q-29 -2 -52.5 9t-46 24.5t-45 23.5t-47.5 10q-53 0 -86 -61zM233 399h418 l-211 928z" />
<glyph unicode="&#xc4;" horiz-adv-x="892" d="M61 0l314 1436h137l319 -1436h-94l-71 317h-447l-72 -317h-86zM233 399h418l-211 928zM301 1509v172h84v-172h-84zM500 1509v172h84v-172h-84z" />
<glyph unicode="&#xc5;" horiz-adv-x="892" d="M61 0l314 1436h137l319 -1436h-94l-71 317h-447l-72 -317h-86zM233 399h418l-211 928zM305 1651q0 57 39 96t98 39q57 0 97.5 -39t40.5 -96q0 -59 -40 -98.5t-98 -39.5q-59 0 -98 39t-39 99zM354 1651q0 -39 26 -62.5t62 -23.5q35 0 61.5 23.5t26.5 62.5q0 37 -26.5 60.5 t-61.5 23.5q-37 0 -62.5 -23.5t-25.5 -60.5z" />
<glyph unicode="&#xc6;" horiz-adv-x="1206" d="M55 0l510 1434h568v-86h-418v-578h346v-86h-346v-598h418v-86h-512v322h-359l-117 -322h-90zM287 406h334v911z" />
<glyph unicode="&#xc7;" horiz-adv-x="765" d="M76 350v733q0 78 17.5 144.5t55 115t96 76t140.5 27.5t140.5 -27.5t96 -76t55 -115t17.5 -144.5v-118h-90v125q0 57 -11 106t-38 86t-68 57.5t-100 20.5t-100 -20.5t-67.5 -57.5t-38 -86t-11.5 -106v-746q0 -57 11.5 -106.5t38 -85t67.5 -56t100 -20.5t100 20.5t68 56 t38 85t11 106.5v170h90v-164q0 -74 -16 -138.5t-51 -113.5t-89.5 -77.5t-129.5 -32.5v-58q72 -2 112.5 -31.5t40.5 -82.5q0 -63 -48 -98t-134 -33q-86 0 -133 33.5t-47 95.5v12h65v-10q0 -35 31 -55.5t84 -24.5q55 0 86 21.5t31 60.5q0 35 -32 55.5t-91 20.5h-15v96 q-76 4 -129 32.5t-86.5 76.5t-50 112.5t-16.5 138.5z" />
<glyph unicode="&#xc8;" horiz-adv-x="718" d="M82 0v1434h565v-86h-471v-578h391v-86h-391v-598h471v-86h-565zM211 1724h102l146 -194h-76z" />
<glyph unicode="&#xc9;" horiz-adv-x="718" d="M82 0v1434h565v-86h-471v-578h391v-86h-391v-598h471v-86h-565zM289 1516l145 194h98l-172 -194h-71z" />
<glyph unicode="&#xca;" horiz-adv-x="718" d="M82 0v1434h565v-86h-471v-578h391v-86h-391v-598h471v-86h-565zM150 1518l172 184h81l175 -184h-91l-125 131l-124 -131h-88z" />
<glyph unicode="&#xcb;" horiz-adv-x="718" d="M82 0v1434h565v-86h-471v-578h391v-86h-391v-598h471v-86h-565zM223 1516v174h82v-174h-82zM420 1516v174h84v-174h-84z" />
<glyph unicode="&#xcc;" horiz-adv-x="258" d="M-49 1710h100l146 -194h-74zM82 0v1434h94v-1434h-94z" />
<glyph unicode="&#xcd;" horiz-adv-x="258" d="M51 1518l146 194h98l-172 -194h-72zM82 0v1434h94v-1434h-94z" />
<glyph unicode="&#xce;" horiz-adv-x="258" d="M-84 1516l172 184h82l172 -184h-88l-125 131l-125 -131h-88zM82 0v1434h94v-1434h-94z" />
<glyph unicode="&#xcf;" horiz-adv-x="258" d="M-12 1518v172h84v-172h-84zM82 0v1434h94v-1434h-94zM186 1518v172h84v-172h-84z" />
<glyph unicode="&#xd0;" horiz-adv-x="788" d="M-12 678v78h94v678h315q82 0 142.5 -26t99.5 -73t57.5 -112.5t18.5 -145.5v-721q0 -80 -18.5 -145.5t-57.5 -112.5t-99.5 -72.5t-142.5 -25.5h-315v678h-94zM176 86h219q121 0 173.5 73.5t52.5 192.5v729q0 119 -53.5 193t-172.5 74h-219v-592h182v-78h-182v-592z" />
<glyph unicode="&#xd1;" horiz-adv-x="800" d="M82 0v1434h123l430 -1211v1211h86v-1434h-105l-448 1278v-1278h-86zM180 1585q39 94 127 98q29 0 53.5 -10t48 -23.5t45 -24.5t44.5 -9q27 0 45 17.5t32 43.5l50 -35q-39 -92 -119 -96q-29 0 -52.5 10.5t-46 23.5t-45 23.5t-47.5 10.5q-51 0 -86 -62z" />
<glyph unicode="&#xd2;" d="M76 350v733q0 78 18.5 144.5t56 115t97 76t141.5 27.5t142.5 -27.5t99.5 -76t57.5 -115t18.5 -144.5v-733q0 -78 -18.5 -144.5t-57.5 -114.5t-99.5 -75.5t-142.5 -27.5t-141.5 27.5t-97 75.5t-56 114.5t-18.5 144.5zM170 344q0 -117 50 -193.5t169 -76.5t171 76.5 t52 193.5v746q0 117 -52 193.5t-171 76.5t-169 -77t-50 -193v-746zM221 1724h103l145 -194h-76z" />
<glyph unicode="&#xd3;" d="M76 350v733q0 78 18.5 144.5t56 115t97 76t141.5 27.5t142.5 -27.5t99.5 -76t57.5 -115t18.5 -144.5v-733q0 -78 -18.5 -144.5t-57.5 -114.5t-99.5 -75.5t-142.5 -27.5t-141.5 27.5t-97 75.5t-56 114.5t-18.5 144.5zM170 344q0 -117 50 -193.5t169 -76.5t171 76.5 t52 193.5v746q0 117 -52 193.5t-171 76.5t-169 -77t-50 -193v-746zM311 1530l146 194h98l-172 -194h-72z" />
<glyph unicode="&#xd4;" d="M76 350v733q0 78 18.5 144.5t56 115t97 76t141.5 27.5t142.5 -27.5t99.5 -76t57.5 -115t18.5 -144.5v-733q0 -78 -18.5 -144.5t-57.5 -114.5t-99.5 -75.5t-142.5 -27.5t-141.5 27.5t-97 75.5t-56 114.5t-18.5 144.5zM170 344q0 -117 50 -193.5t169 -76.5t171 76.5 t52 193.5v746q0 117 -52 193.5t-171 76.5t-169 -77t-50 -193v-746zM176 1526l172 184h82l172 -184h-88l-125 131l-125 -131h-88z" />
<glyph unicode="&#xd5;" d="M76 350v733q0 78 18.5 144.5t56 115t97 76t141.5 27.5t142.5 -27.5t99.5 -76t57.5 -115t18.5 -144.5v-733q0 -78 -18.5 -144.5t-57.5 -114.5t-99.5 -75.5t-142.5 -27.5t-141.5 27.5t-97 75.5t-56 114.5t-18.5 144.5zM170 344q0 -117 50 -193.5t169 -76.5t171 76.5 t52 193.5v746q0 117 -52 193.5t-171 76.5t-169 -77t-50 -193v-746zM174 1581q45 96 129 96q29 0 53.5 -10t48 -23.5t45 -23.5t44.5 -10q27 2 45 18.5t30 42.5l52 -33q-18 -45 -48 -70.5t-71 -27.5q-29 0 -52.5 10.5t-46 23.5t-45 24.5t-47.5 11.5q-55 0 -86 -64z" />
<glyph unicode="&#xd6;" d="M76 350v733q0 78 18.5 144.5t56 115t97 76t141.5 27.5t142.5 -27.5t99.5 -76t57.5 -115t18.5 -144.5v-733q0 -78 -18.5 -144.5t-57.5 -114.5t-99.5 -75.5t-142.5 -27.5t-141.5 27.5t-97 75.5t-56 114.5t-18.5 144.5zM170 344q0 -117 50 -193.5t169 -76.5t171 76.5 t52 193.5v746q0 117 -52 193.5t-171 76.5t-169 -77t-50 -193v-746zM248 1526v174h84v-174h-84zM446 1526v174h84v-174h-84z" />
<glyph unicode="&#xd7;" horiz-adv-x="690" d="M80 500l217 215l-215 215l47 49l217 -215l215 215l47 -47l-215 -217l215 -215l-47 -49l-215 217l-217 -217z" />
<glyph unicode="&#xd8;" d="M76 350v733q0 78 18.5 144.5t56 115t97 76t141.5 27.5q74 0 128 -21.5t93 -60.5l39 100l45 -16l-47 -127q31 -47 45.5 -106.5t14.5 -131.5v-733q0 -78 -18.5 -144.5t-57.5 -114.5t-99.5 -75.5t-142.5 -27.5q-72 0 -127 21.5t-92 60.5l-41 -105l-47 17l51 135 q-57 90 -57 233zM170 344q0 -29 3 -54.5t7 -49.5l393 1026q-27 43 -71.5 68.5t-112.5 25.5q-119 0 -169 -77t-50 -193v-746zM207 170q27 -45 71 -70.5t111 -25.5q119 0 171 76.5t52 193.5v746q0 57 -12 110z" />
<glyph unicode="&#xd9;" horiz-adv-x="770" d="M78 350v1084h94v-1088q0 -57 11.5 -107.5t37 -87t66.5 -57t100 -20.5t100 20.5t67 57t37 87t11 107.5v1088h88v-1084q0 -78 -16.5 -143.5t-53 -114.5t-95 -76.5t-140.5 -27.5t-140.5 27.5t-95 76.5t-54 114.5t-17.5 143.5zM215 1712h102l146 -194h-76z" />
<glyph unicode="&#xda;" horiz-adv-x="770" d="M78 350v1084h94v-1088q0 -57 11.5 -107.5t37 -87t66.5 -57t100 -20.5t100 20.5t67 57t37 87t11 107.5v1088h88v-1084q0 -78 -16.5 -143.5t-53 -114.5t-95 -76.5t-140.5 -27.5t-140.5 27.5t-95 76.5t-54 114.5t-17.5 143.5zM319 1530l146 194h98l-172 -194h-72z" />
<glyph unicode="&#xdb;" horiz-adv-x="770" d="M78 350v1084h94v-1088q0 -57 11.5 -107.5t37 -87t66.5 -57t100 -20.5t100 20.5t67 57t37 87t11 107.5v1088h88v-1084q0 -78 -16.5 -143.5t-53 -114.5t-95 -76.5t-140.5 -27.5t-140.5 27.5t-95 76.5t-54 114.5t-17.5 143.5zM174 1526l172 184h82l174 -184h-90l-125 131 l-125 -131h-88z" />
<glyph unicode="&#xdc;" horiz-adv-x="770" d="M78 350v1084h94v-1088q0 -57 11.5 -107.5t37 -87t66.5 -57t100 -20.5t100 20.5t67 57t37 87t11 107.5v1088h88v-1084q0 -78 -16.5 -143.5t-53 -114.5t-95 -76.5t-140.5 -27.5t-140.5 27.5t-95 76.5t-54 114.5t-17.5 143.5zM244 1522v174h84v-174h-84zM442 1522v174h84 v-174h-84z" />
<glyph unicode="&#xdd;" horiz-adv-x="849" d="M55 1434h99l274 -754l274 754h93l-324 -883v-551h-94v551zM358 1516l148 194h96l-172 -194h-72z" />
<glyph unicode="&#xde;" horiz-adv-x="772" d="M82 0v1434h94v-250h203q166 0 236.5 -95.5t70.5 -252.5v-156q0 -172 -80 -256t-252 -84h-178v-340h-94zM176 426h178q125 0 181.5 58.5t56.5 189.5v166q0 119 -46 187.5t-167 68.5h-203v-670z" />
<glyph unicode="&#xdf;" horiz-adv-x="1458" d="M63 346v74h91v-80q0 -115 49 -189.5t168 -74.5q117 0 167 73.5t50 190.5q0 86 -38 147.5t-96.5 111.5t-125 95t-125 99.5t-96 125t-37.5 171.5q0 162 72.5 258t232.5 98q82 0 139 -26.5t94 -75t54.5 -114t17.5 -143.5v-30h-90v37q0 57 -11.5 105t-37 84t-66.5 56.5 t-98 20.5q-117 0 -165 -75t-48 -189q0 -88 38 -149.5t96 -112t124.5 -96.5t125 -100t96.5 -124t38 -168q0 -78 -17.5 -143.5t-55.5 -113.5t-96 -74.5t-140 -26.5t-140.5 26.5t-96.5 74.5t-55.5 113.5t-17.5 143.5zM774 346v74h90v-80q0 -115 49.5 -189.5t167.5 -74.5 q119 0 168 74.5t49 189.5q0 86 -37.5 147.5t-96 111.5t-125 95t-125 99.5t-96.5 125t-38 171.5q0 162 72.5 258t232.5 98q82 0 139.5 -26.5t94.5 -75t54.5 -114t17.5 -143.5v-30h-91v37q0 57 -11 105t-36.5 84t-66.5 56.5t-99 20.5q-117 0 -165 -75t-48 -189 q0 -88 38 -149.5t96.5 -112t125 -96.5t125 -100t96.5 -124t38 -168q0 -78 -17.5 -143.5t-55.5 -113.5t-96.5 -74.5t-140.5 -26.5t-140 26.5t-96 74.5t-55.5 113.5t-17.5 143.5z" />
<glyph unicode="&#xe0;" horiz-adv-x="892" d="M61 0l314 1436h137l319 -1436h-94l-71 317h-447l-72 -317h-86zM233 399h418l-211 928zM276 1704h103l145 -195h-73z" />
<glyph unicode="&#xe1;" horiz-adv-x="892" d="M61 0l314 1436h137l319 -1436h-94l-71 317h-447l-72 -317h-86zM233 399h418l-211 928zM350 1511l146 195h98l-172 -195h-72z" />
<glyph unicode="&#xe2;" horiz-adv-x="892" d="M61 0l314 1436h137l319 -1436h-94l-71 317h-447l-72 -317h-86zM229 1509l172 185h82l174 -185h-90l-125 129l-125 -129h-88zM233 399h418l-211 928z" />
<glyph unicode="&#xe3;" horiz-adv-x="892" d="M61 0l314 1436h137l319 -1436h-94l-71 317h-447l-72 -317h-86zM219 1569q43 94 129 98q29 0 53.5 -11t48 -24.5t45 -24t44.5 -10.5q27 2 44 18.5t31 45.5l52 -35q-20 -45 -49 -70.5t-70 -25.5q-29 -2 -52.5 9t-46 24.5t-45 23.5t-47.5 10q-53 0 -86 -61zM233 399h418 l-211 928z" />
<glyph unicode="&#xe4;" horiz-adv-x="892" d="M61 0l314 1436h137l319 -1436h-94l-71 317h-447l-72 -317h-86zM233 399h418l-211 928zM301 1509v172h84v-172h-84zM500 1509v172h84v-172h-84z" />
<glyph unicode="&#xe5;" horiz-adv-x="892" d="M61 0l314 1436h137l319 -1436h-94l-71 317h-447l-72 -317h-86zM233 399h418l-211 928zM305 1651q0 57 39 96t98 39q57 0 97.5 -39t40.5 -96q0 -59 -40 -98.5t-98 -39.5q-59 0 -98 39t-39 99zM354 1651q0 -39 26 -62.5t62 -23.5q35 0 61.5 23.5t26.5 62.5q0 37 -26.5 60.5 t-61.5 23.5q-37 0 -62.5 -23.5t-25.5 -60.5z" />
<glyph unicode="&#xe6;" horiz-adv-x="1206" d="M55 0l510 1434h568v-86h-418v-578h346v-86h-346v-598h418v-86h-512v322h-359l-117 -322h-90zM287 406h334v911z" />
<glyph unicode="&#xe7;" horiz-adv-x="765" d="M76 350v733q0 78 17.5 144.5t55 115t96 76t140.5 27.5t140.5 -27.5t96 -76t55 -115t17.5 -144.5v-118h-90v125q0 57 -11 106t-38 86t-68 57.5t-100 20.5t-100 -20.5t-67.5 -57.5t-38 -86t-11.5 -106v-746q0 -57 11.5 -106.5t38 -85t67.5 -56t100 -20.5t100 20.5t68 56 t38 85t11 106.5v170h90v-164q0 -74 -16 -138.5t-51 -113.5t-89.5 -77.5t-129.5 -32.5v-58q72 -2 112.5 -31.5t40.5 -82.5q0 -63 -48 -98t-134 -33q-86 0 -133 33.5t-47 95.5v12h65v-10q0 -35 31 -55.5t84 -24.5q55 0 86 21.5t31 60.5q0 35 -32 55.5t-91 20.5h-15v96 q-76 4 -129 32.5t-86.5 76.5t-50 112.5t-16.5 138.5z" />
<glyph unicode="&#xe8;" horiz-adv-x="718" d="M82 0v1434h565v-86h-471v-578h391v-86h-391v-598h471v-86h-565zM211 1724h102l146 -194h-76z" />
<glyph unicode="&#xe9;" horiz-adv-x="718" d="M82 0v1434h565v-86h-471v-578h391v-86h-391v-598h471v-86h-565zM289 1516l145 194h98l-172 -194h-71z" />
<glyph unicode="&#xea;" horiz-adv-x="718" d="M82 0v1434h565v-86h-471v-578h391v-86h-391v-598h471v-86h-565zM150 1518l172 184h81l175 -184h-91l-125 131l-124 -131h-88z" />
<glyph unicode="&#xeb;" horiz-adv-x="718" d="M82 0v1434h565v-86h-471v-578h391v-86h-391v-598h471v-86h-565zM223 1516v174h82v-174h-82zM420 1516v174h84v-174h-84z" />
<glyph unicode="&#xec;" horiz-adv-x="258" d="M-49 1710h100l146 -194h-74zM82 0v1434h94v-1434h-94z" />
<glyph unicode="&#xed;" horiz-adv-x="258" d="M51 1518l146 194h98l-172 -194h-72zM82 0v1434h94v-1434h-94z" />
<glyph unicode="&#xee;" horiz-adv-x="258" d="M-84 1516l172 184h82l172 -184h-88l-125 131l-125 -131h-88zM82 0v1434h94v-1434h-94z" />
<glyph unicode="&#xef;" horiz-adv-x="258" d="M-12 1518v172h84v-172h-84zM82 0v1434h94v-1434h-94zM186 1518v172h84v-172h-84z" />
<glyph unicode="&#xf0;" horiz-adv-x="788" d="M-4 676v78h86v680h315q82 0 142.5 -26t99.5 -73t57.5 -112.5t18.5 -145.5v-721q0 -80 -18.5 -145.5t-57.5 -112.5t-99.5 -72.5t-142.5 -25.5h-315v676h-86zM176 86h219q121 0 173.5 73.5t52.5 192.5v729q0 119 -53.5 193t-172.5 74h-219v-594h184v-78h-184v-590z" />
<glyph unicode="&#xf1;" horiz-adv-x="800" d="M82 0v1434h123l430 -1211v1211h86v-1434h-105l-448 1278v-1278h-86zM180 1585q39 94 127 98q29 0 53.5 -10t48 -23.5t45 -24.5t44.5 -9q27 0 45 17.5t32 43.5l50 -35q-39 -92 -119 -96q-29 0 -52.5 10.5t-46 23.5t-45 23.5t-47.5 10.5q-51 0 -86 -62z" />
<glyph unicode="&#xf2;" d="M76 350v733q0 78 18.5 144.5t56 115t97 76t141.5 27.5t142.5 -27.5t99.5 -76t57.5 -115t18.5 -144.5v-733q0 -78 -18.5 -144.5t-57.5 -114.5t-99.5 -75.5t-142.5 -27.5t-141.5 27.5t-97 75.5t-56 114.5t-18.5 144.5zM170 344q0 -117 50 -193.5t169 -76.5t171 76.5 t52 193.5v746q0 117 -52 193.5t-171 76.5t-169 -77t-50 -193v-746zM221 1724h103l145 -194h-76z" />
<glyph unicode="&#xf3;" d="M76 350v733q0 78 18.5 144.5t56 115t97 76t141.5 27.5t142.5 -27.5t99.5 -76t57.5 -115t18.5 -144.5v-733q0 -78 -18.5 -144.5t-57.5 -114.5t-99.5 -75.5t-142.5 -27.5t-141.5 27.5t-97 75.5t-56 114.5t-18.5 144.5zM170 344q0 -117 50 -193.5t169 -76.5t171 76.5 t52 193.5v746q0 117 -52 193.5t-171 76.5t-169 -77t-50 -193v-746zM311 1530l146 194h98l-172 -194h-72z" />
<glyph unicode="&#xf4;" d="M76 350v733q0 78 18.5 144.5t56 115t97 76t141.5 27.5t142.5 -27.5t99.5 -76t57.5 -115t18.5 -144.5v-733q0 -78 -18.5 -144.5t-57.5 -114.5t-99.5 -75.5t-142.5 -27.5t-141.5 27.5t-97 75.5t-56 114.5t-18.5 144.5zM170 344q0 -117 50 -193.5t169 -76.5t171 76.5 t52 193.5v746q0 117 -52 193.5t-171 76.5t-169 -77t-50 -193v-746zM176 1526l172 184h82l172 -184h-88l-125 131l-125 -131h-88z" />
<glyph unicode="&#xf5;" d="M76 350v733q0 78 18.5 144.5t56 115t97 76t141.5 27.5t142.5 -27.5t99.5 -76t57.5 -115t18.5 -144.5v-733q0 -78 -18.5 -144.5t-57.5 -114.5t-99.5 -75.5t-142.5 -27.5t-141.5 27.5t-97 75.5t-56 114.5t-18.5 144.5zM170 344q0 -117 50 -193.5t169 -76.5t171 76.5 t52 193.5v746q0 117 -52 193.5t-171 76.5t-169 -77t-50 -193v-746zM174 1581q45 96 129 96q29 0 53.5 -10t48 -23.5t45 -23.5t44.5 -10q27 2 45 18.5t30 42.5l52 -33q-18 -45 -48 -70.5t-71 -27.5q-29 0 -52.5 10.5t-46 23.5t-45 24.5t-47.5 11.5q-55 0 -86 -64z" />
<glyph unicode="&#xf6;" d="M76 350v733q0 78 18.5 144.5t56 115t97 76t141.5 27.5t142.5 -27.5t99.5 -76t57.5 -115t18.5 -144.5v-733q0 -78 -18.5 -144.5t-57.5 -114.5t-99.5 -75.5t-142.5 -27.5t-141.5 27.5t-97 75.5t-56 114.5t-18.5 144.5zM170 344q0 -117 50 -193.5t169 -76.5t171 76.5 t52 193.5v746q0 117 -52 193.5t-171 76.5t-169 -77t-50 -193v-746zM248 1526v174h84v-174h-84zM446 1526v174h84v-174h-84z" />
<glyph unicode="&#xf7;" horiz-adv-x="624" d="M72 682v70h483v-70h-483zM266 412v180h90v-180h-90zM266 842v180h90v-180h-90z" />
<glyph unicode="&#xf8;" d="M76 350v733q0 78 18.5 144.5t56 115t97 76t141.5 27.5q74 0 128 -21.5t93 -60.5l39 100l45 -16l-47 -127q31 -47 45.5 -106.5t14.5 -131.5v-733q0 -78 -18.5 -144.5t-57.5 -114.5t-99.5 -75.5t-142.5 -27.5q-72 0 -127 21.5t-92 60.5l-41 -105l-47 17l51 135 q-57 90 -57 233zM170 344q0 -29 3 -54.5t7 -49.5l393 1026q-27 43 -71.5 68.5t-112.5 25.5q-119 0 -169 -77t-50 -193v-746zM207 170q27 -45 71 -70.5t111 -25.5q119 0 171 76.5t52 193.5v746q0 57 -12 110z" />
<glyph unicode="&#xf9;" horiz-adv-x="770" d="M78 350v1084h94v-1088q0 -57 11.5 -107.5t37 -87t66.5 -57t100 -20.5t100 20.5t67 57t37 87t11 107.5v1088h88v-1084q0 -78 -16.5 -143.5t-53 -114.5t-95 -76.5t-140.5 -27.5t-140.5 27.5t-95 76.5t-54 114.5t-17.5 143.5zM215 1712h102l146 -194h-76z" />
<glyph unicode="&#xfa;" horiz-adv-x="770" d="M78 350v1084h94v-1088q0 -57 11.5 -107.5t37 -87t66.5 -57t100 -20.5t100 20.5t67 57t37 87t11 107.5v1088h88v-1084q0 -78 -16.5 -143.5t-53 -114.5t-95 -76.5t-140.5 -27.5t-140.5 27.5t-95 76.5t-54 114.5t-17.5 143.5zM319 1530l146 194h98l-172 -194h-72z" />
<glyph unicode="&#xfb;" horiz-adv-x="770" d="M78 350v1084h94v-1088q0 -57 11.5 -107.5t37 -87t66.5 -57t100 -20.5t100 20.5t67 57t37 87t11 107.5v1088h88v-1084q0 -78 -16.5 -143.5t-53 -114.5t-95 -76.5t-140.5 -27.5t-140.5 27.5t-95 76.5t-54 114.5t-17.5 143.5zM174 1526l172 184h82l174 -184h-90l-125 131 l-125 -131h-88z" />
<glyph unicode="&#xfc;" horiz-adv-x="770" d="M78 350v1084h94v-1088q0 -57 11.5 -107.5t37 -87t66.5 -57t100 -20.5t100 20.5t67 57t37 87t11 107.5v1088h88v-1084q0 -78 -16.5 -143.5t-53 -114.5t-95 -76.5t-140.5 -27.5t-140.5 27.5t-95 76.5t-54 114.5t-17.5 143.5zM244 1522v174h84v-174h-84zM442 1522v174h84 v-174h-84z" />
<glyph unicode="&#xfd;" horiz-adv-x="849" d="M55 1434h99l274 -754l274 754h93l-324 -883v-551h-94v551zM358 1516l148 194h96l-172 -194h-72z" />
<glyph unicode="&#xfe;" horiz-adv-x="772" d="M82 0v1434h94v-250h203q166 0 236.5 -95.5t70.5 -252.5v-156q0 -172 -80 -256t-252 -84h-178v-340h-94zM176 426h178q125 0 181.5 58.5t56.5 189.5v166q0 119 -46 187.5t-167 68.5h-203v-670z" />
<glyph unicode="&#xff;" horiz-adv-x="849" d="M55 1434h99l274 -754l274 754h93l-324 -883v-551h-94v551zM285 1518v172h84v-172h-84zM483 1518v172h84v-172h-84z" />
<glyph unicode="&#x152;" horiz-adv-x="1163" d="M74 356v721q0 74 16 139.5t52 113.5t93.5 76t137.5 28h717v-86h-420v-578h348v-86h-348v-598h420v-86h-717q-80 0 -137.5 27.5t-93.5 76t-52 114t-16 138.5zM168 352q0 -55 11 -103t36 -84t63.5 -57.5t96.5 -21.5h200v1262h-200q-57 0 -96 -21.5t-64 -57.5t-36 -84 t-11 -104v-729z" />
<glyph unicode="&#x153;" horiz-adv-x="1163" d="M74 356v721q0 74 16 139.5t52 113.5t93.5 76t137.5 28h717v-86h-420v-578h348v-86h-348v-598h420v-86h-717q-80 0 -137.5 27.5t-93.5 76t-52 114t-16 138.5zM168 352q0 -55 11 -103t36 -84t63.5 -57.5t96.5 -21.5h200v1262h-200q-57 0 -96 -21.5t-64 -57.5t-36 -84 t-11 -104v-729z" />
<glyph unicode="&#x178;" horiz-adv-x="849" d="M55 1434h99l274 -754l274 754h93l-324 -883v-551h-94v551zM285 1518v172h84v-172h-84zM483 1518v172h84v-172h-84z" />
<glyph unicode="&#x2c6;" horiz-adv-x="512" d="M43 1552l172 185h82l172 -185h-88l-125 129l-125 -129h-88z" />
<glyph unicode="&#x2dc;" horiz-adv-x="536" d="M45 1579q45 96 129 96q29 0 53.5 -10t48 -23.5t45 -23.5t44.5 -10q27 0 44 17t31 44l52 -33q-41 -96 -119 -98q-29 0 -53.5 10.5t-47 23.5t-44 23.5t-46.5 10.5q-53 0 -86 -62z" />
<glyph unicode="&#x2000;" horiz-adv-x="893" />
<glyph unicode="&#x2001;" horiz-adv-x="1786" />
<glyph unicode="&#x2002;" horiz-adv-x="893" />
<glyph unicode="&#x2003;" horiz-adv-x="1786" />
<glyph unicode="&#x2004;" horiz-adv-x="595" />
<glyph unicode="&#x2005;" horiz-adv-x="446" />
<glyph unicode="&#x2006;" horiz-adv-x="297" />
<glyph unicode="&#x2007;" horiz-adv-x="297" />
<glyph unicode="&#x2008;" horiz-adv-x="223" />
<glyph unicode="&#x2009;" horiz-adv-x="357" />
<glyph unicode="&#x200a;" horiz-adv-x="99" />
<glyph unicode="&#x2010;" horiz-adv-x="532" d="M78 674v86h377v-86h-377z" />
<glyph unicode="&#x2011;" horiz-adv-x="532" d="M78 674v86h377v-86h-377z" />
<glyph unicode="&#x2012;" horiz-adv-x="532" d="M78 674v86h377v-86h-377z" />
<glyph unicode="&#x2013;" horiz-adv-x="854" d="M53 678v78h750v-78h-750z" />
<glyph unicode="&#x2014;" horiz-adv-x="1372" d="M53 678v78h1268v-78h-1268z" />
<glyph unicode="&#x2018;" horiz-adv-x="274" d="M82 1098v172l59 164h41l-41 -156h33v-180h-92z" />
<glyph unicode="&#x2019;" horiz-adv-x="274" d="M92 1098l41 155h-31v181h91v-172l-60 -164h-41z" />
<glyph unicode="&#x201a;" horiz-adv-x="274" d="M92 -156l41 156h-31v180h91v-172l-60 -164h-41z" />
<glyph unicode="&#x201c;" horiz-adv-x="434" d="M82 1098v172l59 164h41l-41 -156h33v-180h-92zM242 1098v172l59 164h43l-43 -156h33v-180h-92z" />
<glyph unicode="&#x201d;" horiz-adv-x="434" d="M82 1098l43 155h-33v181h92v-172l-59 -164h-43zM244 1098l41 155h-33v181h92v-172l-59 -164h-41z" />
<glyph unicode="&#x201e;" horiz-adv-x="444" d="M92 -156l41 156h-31v180h91v-172l-60 -164h-41zM262 -156l43 156h-33v180h90v-172l-57 -164h-43z" />
<glyph unicode="&#x2022;" horiz-adv-x="538" d="M123 717q0 61 43 104t102 43q61 0 104.5 -43t43.5 -104t-43 -104.5t-105 -43.5q-59 0 -102 43t-43 105z" />
<glyph unicode="&#x2026;" horiz-adv-x="579" d="M82 0v180h92v-180h-92zM244 0v180h90v-180h-90zM408 0v180h90v-180h-90z" />
<glyph unicode="&#x202f;" horiz-adv-x="357" />
<glyph unicode="&#x2039;" horiz-adv-x="350" d="M63 717l134 508h90l-131 -508l131 -518h-90z" />
<glyph unicode="&#x203a;" horiz-adv-x="350" d="M63 201l132 518l-132 508h91l133 -508l-133 -518h-91z" />
<glyph unicode="&#x205f;" horiz-adv-x="446" />
<glyph unicode="&#x20ac;" horiz-adv-x="813" d="M53 584v53h82v168h-82v55h82v223q0 76 16.5 142.5t53.5 116t94 77t139 27.5t139.5 -27.5t94.5 -77t53 -116t16 -142.5v-77h-90v84q0 57 -11 106t-35.5 86t-65.5 57.5t-99 20.5q-57 0 -97 -20.5t-65.5 -57.5t-37 -86t-11.5 -106v-230h396v-55h-396v-168h396v-53h-396v-240 q0 -57 11.5 -106.5t36 -85t64.5 -56t99 -20.5q57 0 98.5 20.5t66 56t35.5 85t11 106.5v94h90v-88q0 -78 -16 -143.5t-53 -114.5t-94.5 -76.5t-139.5 -27.5t-139 27.5t-94 76.5t-53.5 114.5t-16.5 143.5v234h-82z" />
<glyph unicode="&#x2122;" horiz-adv-x="1187" d="M29 1374v60h432v-60h-182v-669h-66v669h-184zM557 705v729h90l191 -623l188 623h90v-729h-61v628l-187 -620h-63l-189 620v-628h-59z" />
<glyph unicode="&#x25fc;" horiz-adv-x="1435" d="M0 0v1435h1435v-1435h-1435z" />
</font>
</defs>
</svg>
